Jane Birkin Arabesque Rapidshare

On

Naruto Shippuden All Episode Full HD - untuk kualitas dari film yang kami upload ini beresolusi 480p, 720p dan 1080p semua ada. Anime ini banyak digemari karena tokoh utama dari anime ini yakni 'Naruto' yang memiliki sifat pantang menyeraah serta berjuang dengan keras untuk menjadi hokage. Namun, bagi anda yang ingin mendownload Film Naruto Kecil juga bisa. Sedangkan untuk sever downloadnya kami menggunakan Google Drive (semua) yang tentunya dari segi kecepatan sangat cepat dan sangat mudah untuk didownload. Jadi bagi anda yang mendownload melalui leptop anime ini akan tetap jernih jika ditonton. Download film naruto shippuden episode 91 sub indo.

JANE BIRKIN She left home(instrumental) album-arabesque. 23,882 views. Djamel Ben Yelles - She Left Home. 155,846 views. 'DJAMEL BENYELLES' 'she. Download lagu lama tahun 60 an. The duo released their debut album Jane Birkin/Serge Gainsbourg (1969), and also appeared in the controversial film Je t'aime moi non plus (1976) under Gainsbourg's direction. Birkin would attain further acting credits in the Agatha Christie films Death on the Nile (1978) and Evil Under the Sun (1982).

Jane

Jane Birkin Wikipedia

Jane Birkin - Birkin-Gainsbourg: Le Symphonique (2017) [Official Digital Download 24/96]


Jane Birkin - Birkin/Gainsbourg: Le symphonique (2017)
FLAC (tracks) 24-bit/96 kHz Time - 77:09 minutes 1,57 GB
Studio Master, Official Digital Download Artwork: Front cover
Jane Birkin has released a new album featuring symphony versions of songs by her late collaborator Serge Gainsbourg. It’s called Birkin/Gainsbourg: Le Symphonique. Arranged by Japanese composer Nobuyuki Nakajima and recorded by Gainsbourg producer Philippe Lerichomme, the album features new symphonic arrangements performed by the Montreal Symphony Orchestra.
Gainsbourg Symphonic is a tribute to the legendary musician Serge Gainsbourg by his equally magnetic muse and partner Jane Birkin.
A fashion icon, singer and actress, Jane Birkin, whose Arabesque concerts at HKAF 2004 were sell-out successes, has recorded many Gainsbourg songs including the legendary Je t’aime… moi non plus, originally written for Brigitte Bardot.
Jane Birkin’s partner in music and life, Serge Gainsbourg (1928 – 1991), was a pianist, composer, poet, actor, film director, and French cultural icon; his countless hits covered every music genre from jazz to chanson, from pop to disco and new wave. French president François Mitterrand said at his funeral 'he was our Baudelaire, our Apollinaire, he elevated song to the level of art'.
25 years after Gainsbourg premature death, Jane Birkin has created the first ever symphonic concert in tribute to Gainsbourg’s legacy in pop music. Jointly created by artistic director/music producer, Philippe Lerichonne and Japanese composer, arranger and pianist, Nobuyuki Nakajima, this exceptional concert reveals the full range of Gainsbourg’s fabulous music.

Tracklist:
01 - Lost Song
02 - Dépression au-dessus du jardin
03 - Baby Alone In Babylone
04 - Physique et sans issue
05 - Ces petits riens
06 - L'aquoiboniste
07 - Valse de Melody
08 - Fuir le bonheur de peur qu'il ne se sauve
09 - Requiem pour un con
10 - Une chose entre autresBirkin
11 - Amour des feintes

Jane Birkin Youtube

12 - Exercice en forme de Z
13 - Manon
14 - La chanson de Prévert
15 - Les dessous chics
16 - L'amour de moi
17 - Pull marine
18 - La gadoue
19 - Jane B.Jane birkin bags
20 - L'anamour
21 - La Javanaise
Dynamic Range Report
Analyzed: Jane Birkin / Birkin / Gainsbourg: Le symphonique
––––––––––––––––––––––––––––––––––––––––
DR Peak RMS Duration Track
––––––––––––––––––––––––––––––––––––––––
DR7 -0.16 dB -10.78 dB 4:51 01-Lost Song
DR8 -0.16 dB -11.14 dB 2:47 02-Dépression au-dessus du jardin
DR6 -0.16 dB -10.02 dB 4:42 03-Baby Alone In Babylone
DR9 -0.16 dB -12.29 dB 3:10 04-Physique et sans issue
DR8 -1.16 dB -11.17 dB 2:16 05-Ces petits riens
DR10 -0.16 dB -12.89 dB 3:17 06-L'aquoiboniste
DR6 -0.16 dB -10.12 dB 3:09 07-Valse de Melody
DR8 -0.16 dB -11.38 dB 3:32 08-Fuir le bonheur de peur qu'il ne se sauve
DR5 -0.16 dB -7.60 dB 2:48 09-Requiem pour un con
DR6 -0.16 dB -11.52 dB 5:33 10-Une chose entre autres
DR7 -0.16 dB -10.85 dB 4:44 11-Amour des feintes
DR6 -0.16 dB -9.70 dB 3:06 12-Exercice en forme de Z
DR8 -0.16 dB -11.17 dB 2:47 13-Manon
DR6 -0.16 dB -10.40 dB 4:04 14-La chanson de Prévert
DR6 -0.16 dB -8.94 dB 2:03 15-Les dessous chics
DR10 -0.16 dB -12.64 dB 4:15 16-L'amour de moi
DR5 -1.16 dB -9.71 dB 4:47 17-Pull marine
DR6 -0.16 dB -9.05 dB 4:08 18-La gadoue
DR5 -0.16 dB -8.59 dB 3:46 19-Jane B.
DR6 -0.16 dB -9.01 dB 3:19 20-L'anamour
DR7 -0.16 dB -10.34 dB 4:04 21-La Javanaise
––––––––––––––––––––––––––––––––––––––––
Number of tracks: 21
Official DR value: DR7
Samplerate: 96000 Hz
Channels: 2
Bits per sample: 24
Bitrate: 2726 kbps
Codec: FLAC

Thanks to the Original customer!